点拨论坛,菜鸟家园

 找回密码
 立即注册

QQ登录

只需一步,快速开始

扫一扫,访问微社区

教程经验总索引TVMW5/小日本5 索引【视频转换】小日本4/TE4XP 索引【视频转换】TAW4 / TDA3 索引【DVD打包软件】
Nero 索引DVD-Lab 索引【DVD打包软件】编解码器 索引 【必读】固顶帖011号
查看: 443|回复: 10
收起左侧

关于MP4音频采样率的转换问题,请高手教一教

[复制链接]

0

威望

32

金钱

0

贡献

新手上路

Rank: 1

积分
33
主题
1
帖子
4
注册时间
2017-9-13
最后登录
2017-9-19
发表于 2017-9-13 08:01:18 | 显示全部楼层 |阅读模式

马上注册,结交更多好友,享用更多功能,让你轻松玩转社区。

您需要 登录 才可以下载或查看,没有帐号?立即注册

x
这个是别人转码后的参数:
Audio
ID : 2
Format : AAC
Format/Info : Advanced Audio Codec
Format profile : HE-AAC / LC
Codec ID : 40
Duration : 3mn 0s
Bit rate mode : Constant
Bit rate : 64.0 Kbps
Channel(s) : 2 channels
Channel positions : Front: L R
Sampling rate : 44.1 KHz / 22.05 KHz
Compression mode : Lossy
Stream size : 1.38 MiB (12%)

这个是我转码后的参数,格式工厂转的
Audio
ID : 1
Format : AAC
Format/Info : Advanced Audio Codec
Format profile : LC
Codec ID : 40
Duration : 1mn 34s
Bit rate mode : Variable
Bit rate : 127 Kbps
Maximum bit rate : 133 Kbps
Channel(s) : 2 channels
Channel positions : Front: L R
Sampling rate : 44.1 KHz
Compression mode : Lossy
Stream size : 1.43 MiB (12%)

那个Sampling rate : 44.1 KHz跟别人的不同,请问有如何转到与别人一样
你的问题有多精彩,我的答复就有多精彩!

9286

威望

61万

金钱

1万

贡献

管理员

自由的灵魂

Rank: 9Rank: 9Rank: 9

积分
710633
主题
4776
帖子
30197
注册时间
2003-4-10
最后登录
2018-7-17
发表于 2017-9-13 14:38:07 | 显示全部楼层
设置参数中进行调整。不止一个地方不一样:


本帖子中包含更多资源

您需要 登录 才可以下载或查看,没有帐号?立即注册

x
IsaacZ的发言中如果提到任何字母缩写或专有名词,在本论坛中一般都能搜索到。点此立即搜索点拨论坛。如有搜索不到的,请尝试搜索百度百科,或者跟帖提问。
发帖前请注意看置顶帖。如果你发现自己的问题没有得到回答,说明你的问题提错了地方或者提问前未先阅读本版规则固顶帖011号
小提示:麻烦别人帮你的时候,应尽量自己麻烦些,让帮你的人轻松些。

0

威望

32

金钱

0

贡献

新手上路

Rank: 1

积分
33
主题
1
帖子
4
注册时间
2017-9-13
最后登录
2017-9-19
 楼主| 发表于 2017-9-13 17:18:12 | 显示全部楼层
我知道,关键是用什么软件转换,还有我只想要那个Sampling rate(声音采样率)相同,我的是左右采样率一样,别人的是左右分别采样,左右的采样率不一样,请高手们指教一下
小提示:麻烦别人帮你的时候,应尽量自己麻烦些,让帮你的人轻松些。

49

威望

4086

金钱

219

贡献

超级版主

孤魂野草

Rank: 8Rank: 8

积分
5263
主题
164
帖子
2312
注册时间
2011-12-18
最后登录
2018-7-14
QQ
发表于 2017-9-14 15:11:23 | 显示全部楼层
有趣。把源文件上传一下看看?
你的问题有多精彩,我的答复就有多精彩!

0

威望

32

金钱

0

贡献

新手上路

Rank: 1

积分
33
主题
1
帖子
4
注册时间
2017-9-13
最后登录
2017-9-19
 楼主| 发表于 2017-9-14 16:26:13 | 显示全部楼层
上传不了,太大了。就是那个Sampling rate(声音采样率):Sampling rate : 44.1 KHz / 22.05 KHz,左右声道采样率一个高一个低,就想不明白如何做出来。
你的问题有多精彩,我的答复就有多精彩!

9286

威望

61万

金钱

1万

贡献

管理员

自由的灵魂

Rank: 9Rank: 9Rank: 9

积分
710633
主题
4776
帖子
30197
注册时间
2003-4-10
最后登录
2018-7-17
发表于 2017-9-17 07:31:31 | 显示全部楼层
通过网盘分享,或者直接提供原始链接。
IsaacZ的发言中如果提到任何字母缩写或专有名词,在本论坛中一般都能搜索到。点此立即搜索点拨论坛。如有搜索不到的,请尝试搜索百度百科,或者跟帖提问。
发帖前请注意看置顶帖。如果你发现自己的问题没有得到回答,说明你的问题提错了地方或者提问前未先阅读本版规则固顶帖011号

9286

威望

61万

金钱

1万

贡献

管理员

自由的灵魂

Rank: 9Rank: 9Rank: 9

积分
710633
主题
4776
帖子
30197
注册时间
2003-4-10
最后登录
2018-7-17
发表于 2017-9-17 07:34:15 | 显示全部楼层
用音频软件分别处理两个声道,保存为一个AAC,然后无损封装进MP4。
IsaacZ的发言中如果提到任何字母缩写或专有名词,在本论坛中一般都能搜索到。点此立即搜索点拨论坛。如有搜索不到的,请尝试搜索百度百科,或者跟帖提问。
发帖前请注意看置顶帖。如果你发现自己的问题没有得到回答,说明你的问题提错了地方或者提问前未先阅读本版规则固顶帖011号
小提示:麻烦别人帮你的时候,应尽量自己麻烦些,让帮你的人轻松些。

0

威望

32

金钱

0

贡献

新手上路

Rank: 1

积分
33
主题
1
帖子
4
注册时间
2017-9-13
最后登录
2017-9-19
 楼主| 发表于 2017-9-17 09:45:11 | 显示全部楼层
IsaacZ 发表于 2017-9-17 07:34
用音频软件分别处理两个声道,保存为一个AAC,然后无损封装进MP4。

不太懂,可以说详细些吗,另外用PR可以吗

下载链接如果注明是迅雷下载,请用“右键”选迅雷下载 ...

0

威望

463

金钱

0

贡献

初级会员

Rank: 2Rank: 2

积分
470
主题
0
帖子
83
注册时间
2017-8-9
最后登录
2017-12-10
发表于 2017-11-6 21:39:05 | 显示全部楼层
有意思,学习一下。。。
下载链接如果注明是迅雷下载,请用“右键”选迅雷下载 ...

0

威望

3299

金钱

1

贡献

中级会员

Rank: 3Rank: 3Rank: 3

积分
3330
主题
1
帖子
290
注册时间
2016-12-6
最后登录
2018-7-19
发表于 2017-11-7 07:11:31 | 显示全部楼层
学习一下。。。
公告:注意经常使用页面上方的“搜索”框,这可以节省所有人大量的时间。(请先登录)
您需要登录后才可以回帖 登录 | 立即注册

本版积分规则

关闭

站长推荐上一条 /2 下一条

QQ|小黑屋|Archiver|手机版|点拨网 - 面向新手的教学站

GMT+8, 2018-7-20 01:17 , Processed in 0.133187 second(s), 21 queries , MemCache On.

Powered by Discuz! X3.4

© 2001-2017 Comsenz Inc.

快速回复 返回顶部 返回列表