点拨论坛,菜鸟家园

 找回密码
 立即注册

QQ登录

只需一步,快速开始

扫一扫,访问微社区

查看: 336|回复: 12
收起左侧

[百度云/MPG/60G]电视剧《亮剑》DVD9收藏版

[复制链接]

49

威望

4086

金钱

219

贡献

超级版主

孤魂野草

Rank: 8Rank: 8

积分
5263
主题
164
帖子
2312
注册时间
2011-12-18
最后登录
2018-7-14
QQ
发表于 2018-4-23 19:18:18 | 显示全部楼层 |阅读模式
本帖最后由 伤心的笔 于 2018-5-5 12:45 编辑


剧情就不用介绍了吧

从中凯的10DVD9收藏版中无损提取的MPG文件,并没有再次压制,适合收藏。之所以不上传原盘是因为感觉原盘菜单做的一般般,以及原盘中还有一些错误。
修复了原盘第29集的错误MPG。
片头片尾是独立的文件,片头从第二碟中提取的,因为第一碟的片头有个做坏了的淡入淡出特效。片尾来自第一碟。
每集大约2GiB大小,四十多分钟。原汁原味。
虽然是DVD9,画面质量一般般,还有硬字幕,应该是这部剧拍摄和后期制作的资金限制吧。

第一集的MediaInfo
  1. General
  2. Complete name               : \\SERVER-E5300\cloud\视频\DVDISO\亮剑\单集MPG\第01集.mpg
  3. Format                      : MPEG-PS
  4. File size                   : 1.97 GiB
  5. Duration                    : 42 min 3 s
  6. Overall bit rate mode       : Variable
  7. Overall bit rate            : 6 712 kb/s

  8. Video
  9. ID                          : 224 (0xE0)
  10. Format                      : MPEG Video
  11. Format version              : Version 2
  12. Format profile              : Main@Main
  13. Format settings, BVOP       : Yes
  14. Format settings, Matrix     : Custom
  15. Format settings, GOP        : M=3, N=12
  16. Format settings, picture st : Frame
  17. Duration                    : 42 min 2 s
  18. Bit rate mode               : Variable
  19. Bit rate                    : 6 194 kb/s
  20. Maximum bit rate            : 8 000 kb/s
  21. Width                       : 720 pixels
  22. Height                      : 576 pixels
  23. Display aspect ratio        : 4:3
  24. Frame rate                  : 25.000 FPS
  25. Standard                    : PAL
  26. Color space                 : YUV
  27. Chroma subsampling          : 4:2:0
  28. Bit depth                   : 8 bits
  29. Scan type                   : Interlaced
  30. Scan order                  : Top Field First
  31. Compression mode            : Lossy
  32. Bits/(Pixel*Frame)          : 0.597
  33. Time code of first frame    : 00:00:00:00
  34. Time code source            : Group of pictures header
  35. GOP, Open/Closed            : Closed
  36. Stream size                 : 1.82 GiB (92%)

  37. Audio
  38. ID                          : 189 (0xBD)-128 (0x80)
  39. Format                      : AC-3
  40. Format/Info                 : Audio Coding 3
  41. Mode extension              : CM (complete main)
  42. Format settings, Endianness : Big
  43. Muxing mode                 : DVD-Video
  44. Duration                    : 42 min 3 s
  45. Bit rate mode               : Constant
  46. Bit rate                    : 384 kb/s
  47. Channel(s)                  : 6 channels
  48. Channel positions           : Front: L C R, Side: L R, LFE
  49. Sampling rate               : 48.0 kHz
  50. Frame rate                  : 31.250 FPS (1536 spf)
  51. Bit depth                   : 16 bits
  52. Compression mode            : Lossy
  53. Stream size                 : 115 MiB (6%)

复制代码


下载地址
游客,如果您要查看本帖隐藏内容请回复




本帖子中包含更多资源

您需要 登录 才可以下载或查看,没有帐号?立即注册

x
公告:注意经常使用页面上方的“搜索”框,这可以节省所有人大量的时间。(请先登录)

0

威望

2997

金钱

14

贡献

版主

Rank: 7Rank: 7Rank: 7Rank: 7

积分
3149
主题
287
帖子
553
注册时间
2010-9-4
最后登录
2018-7-22
发表于 2018-4-23 19:52:42 | 显示全部楼层
电视剧《亮剑》剧情不错。
小提示:麻烦别人帮你的时候,应尽量自己麻烦些,让帮你的人轻松些。

0

威望

617

金钱

0

贡献

初级会员

Rank: 2Rank: 2

积分
624
主题
0
帖子
84
注册时间
2018-3-24
最后登录
2018-7-21
发表于 2018-4-24 14:50:06 | 显示全部楼层
这个必须鼎,打倒小日本。
你的问题有多精彩,我的答复就有多精彩!

0

威望

7183

金钱

22

贡献

高级会员

少帥

Rank: 4

积分
7350
主题
27
帖子
550
注册时间
2010-1-24
最后登录
2018-7-22
发表于 2018-4-27 11:04:22 | 显示全部楼层
电视剧《亮剑》剧情不错。
你的问题有多精彩,我的答复就有多精彩!

0

威望

617

金钱

0

贡献

初级会员

Rank: 2Rank: 2

积分
624
主题
0
帖子
84
注册时间
2018-3-24
最后登录
2018-7-21
发表于 2018-4-27 14:57:27 | 显示全部楼层
用意大利炮。干他娘的。

0

威望

370

金钱

0

贡献

初级会员

Rank: 2Rank: 2

积分
377
主题
0
帖子
39
注册时间
2018-4-1
最后登录
2018-7-21
发表于 2018-4-27 15:38:12 | 显示全部楼层
谢谢分享,把我的意大利炮抬上来,哄他娘的
你知道吗?——可以用左右方向键快速翻页。

0

威望

53

金钱

0

贡献

新手上路

Rank: 1

积分
57
主题
0
帖子
7
注册时间
2018-4-27
最后登录
2018-5-15
发表于 2018-4-29 12:42:49 | 显示全部楼层
谢谢,正需要
你知道吗?——可以用左右方向键快速翻页。

0

威望

617

金钱

0

贡献

初级会员

Rank: 2Rank: 2

积分
624
主题
0
帖子
84
注册时间
2018-3-24
最后登录
2018-7-21
发表于 2018-4-29 15:29:22 | 显示全部楼层
好电视剧,牛逼
你的问题有多精彩,我的答复就有多精彩!

0

威望

44

金钱

0

贡献

新手上路

Rank: 1

积分
45
主题
0
帖子
31
注册时间
2018-4-15
最后登录
2018-5-10
发表于 2018-5-4 23:26:01 | 显示全部楼层
感谢发布,多谢分享
下载链接如果注明是迅雷下载,请用“右键”选迅雷下载 ...

0

威望

729

金钱

4

贡献

版主

Rank: 7Rank: 7Rank: 7Rank: 7

积分
750
主题
5
帖子
81
注册时间
2015-2-21
最后登录
2018-7-21
发表于 2018-5-5 14:48:37 | 显示全部楼层
不错的资源,很好谢分享~!
您需要登录后才可以回帖 登录 | 立即注册

本版积分规则

关闭

站长推荐上一条 /2 下一条

QQ|小黑屋|Archiver|手机版|点拨网 - 面向新手的教学站

GMT+8, 2018-7-22 09:06 , Processed in 0.251562 second(s), 10 queries , MemCache On.

Powered by Discuz! X3.4

© 2001-2017 Comsenz Inc.

快速回复 返回顶部 返回列表