点拨论坛,菜鸟家园

 找回密码
 立即注册

QQ登录

只需一步,快速开始

教程经验总索引TVMW5/小日本5 索引【视频转换】小日本4/TE4XP 索引【视频转换】TAW4 / TDA3 索引【DVD打包软件】
Nero 索引DVD-Lab 索引【DVD打包软件】编解码器 索引 【必读】固顶帖011号
查看: 8556|回复: 15
收起左侧

[经验] 用nero6、8,轻松刻入cue+APE,正常显示中文CD-text

[复制链接]

104

威望

8725

金钱

369

贡献

高级会员

Rank: 4

积分
10880
主题
123
帖子
2298
注册时间
2009-11-9
最后登录
2021-4-28
QQ
发表于 2012-7-7 00:46:34 | 显示全部楼层 |阅读模式

马上注册,结交更多好友,享用更多功能,让你轻松玩转社区。

您需要 登录 才可以下载或查看,没有帐号?立即注册

x
本帖最后由 lijianwen 于 2012-7-7 03:08 编辑

最近几天,看见Hiroshi和伤心的笔两位网友讨论用Nero刻录CUE+APE,问题很多,跟本人的经验不符合,今天有空进行了测试。
首先找到一张原版CD,进行抓轨:
Snap1.jpg


抓轨得到的CUE文件截图;

Snap2.jpg

硬盘上准备好的CUE+APE文件

Snap3.jpg

然后给Nero安装好从论坛下载的插件,直接打开Nero6,选择图中红圈里的选项:(光盘映像或保存的项目)

Snap5.jpg
可能网友会问:为什么要选这里?原因是CD镜像就是CUE+APE。这个从第一图抓轨软件的设置里也可以看到,生成的选项是“Disc Image".

找到中文名字的CUE文件,直接可以打开:
Snap6.jpg

下面开始刻录:

Snap7.jpg

刻录后的光盘用抓轨软件查看:

未命名.jpg

完美的复制品,无须改文件名,无须改CUE内部指针,伤心的笔遇到的问题在Nero6面前都是浮云。

接下来测试Nero8,中文文件名确实不行,但路径还是可以存在于中文命名的文件夹下面的,改CUE指针到和文件名一致,Nero8即可完整刻录,完美保存中文TEXT:

Snap8.jpg

使用Nero8刻录时,需要修改CUE,下图红圈中的地方,改成跟文件名一致就可以了。推荐把文件名和这里修改成一个简单数字。
Snap9.jpg


此测试非常细致,网友可参照结论进行相关刻录。

评分

参与人数 1威望 +2 贡献 +1 收起 理由
IsaacZ + 2 + 1 谢谢分享经验!

查看全部评分

104

威望

8725

金钱

369

贡献

高级会员

Rank: 4

积分
10880
主题
123
帖子
2298
注册时间
2009-11-9
最后登录
2021-4-28
QQ
 楼主| 发表于 2012-7-7 03:05:53 | 显示全部楼层
如果用Nero镜像刻录机,刻录成nrg,用UltraISO打开如图:

Snap1.jpg

68

威望

5604

金钱

234

贡献

高级会员

Rank: 4

积分
6889
主题
291
帖子
2192
注册时间
2010-2-18
最后登录
2018-5-14
发表于 2012-7-7 10:16:56 | 显示全部楼层
本帖最后由 Hiroshi 于 2012-7-7 11:13 编辑
最近几天,看见Hiroshi和伤心的笔两位网友讨论用Nero刻录CUE+APE,问题很多,跟本人的经验不符合,今天有空进行了测试。

跟你经验不符合,是不是想劝我们用nero6?

68

威望

5604

金钱

234

贡献

高级会员

Rank: 4

积分
6889
主题
291
帖子
2192
注册时间
2010-2-18
最后登录
2018-5-14
发表于 2012-7-7 11:02:01 | 显示全部楼层
本帖最后由 Hiroshi 于 2012-7-7 11:12 编辑

1楼的光盘似乎做得很“shan寨”,看看“原版”唱片是啥样的?{:soso_e120:}


Snap5.gif

104

威望

8725

金钱

369

贡献

高级会员

Rank: 4

积分
10880
主题
123
帖子
2298
注册时间
2009-11-9
最后登录
2021-4-28
QQ
 楼主| 发表于 2012-7-7 11:38:42 | 显示全部楼层
本帖最后由 lijianwen 于 2012-7-7 11:48 编辑


你这张做的不错。1楼的碟片也是原版,75元一张的,哈哈,你可以向出版公司提建议改进。

0

威望

1443

金钱

4

贡献

中级会员

旅行者

Rank: 3Rank: 3Rank: 3

积分
1516
主题
23
帖子
177
注册时间
2011-5-9
最后登录
2019-7-16
发表于 2012-7-7 14:32:42 | 显示全部楼层
试过,有些能刻,有的不行,还是CUE导入出错,好像APE不匹配,试着把APE文件和cue文件中这排FILE "2.ape" WAVE改成简单、统一的名字后,还是报错,高手帮我分析下,问题出在哪里?
这是CUE文件:
REM GENRE "Vocal Jazz"
REM DATE 1958
REM DISCID D40D7010
REM COMMENT "ExactAudioCopy v0.99pb4"
CATALOG 0010963111927
PERFORMER "Nat King Cole"
TITLE "The Very Thought Of You (DCC Gold GZS-1119) [1958]"
FILE "CD1.ape" WAVE
  TRACK 01 AUDIO
    TITLE "The Very Thought Of You"
    PERFORMER "Nat King Cole"
    INDEX 01 00:00:00
  TRACK 02 AUDIO
    TITLE "But Beautiful"
    PERFORMER "Nat King Cole"
    INDEX 01 03:52:60
  TRACK 03 AUDIO
    TITLE "Impossible"
    PERFORMER "Nat King Cole"
    INDEX 01 07:25:20
  TRACK 04 AUDIO
    TITLE "I Wish I Knew The Way To Your Heart"
    PERFORMER "Nat King Cole"
    INDEX 01 10:39:35
  TRACK 05 AUDIO
    TITLE "I Found A Million Dollar Baby (In A Five And Ten Cent Store)"
    PERFORMER "Nat King Cole"
    INDEX 01 13:58:62
  TRACK 06 AUDIO
    TITLE "Magnificent Obsession"
    PERFORMER "Nat King Cole"
    INDEX 01 16:54:50
  TRACK 07 AUDIO
    TITLE "My Heart Tells Me (Should I Believe My Heart)"
    PERFORMER "Nat King Cole"
    INDEX 01 20:53:30
  TRACK 08 AUDIO
    TITLE "Paradise"
    PERFORMER "Nat King Cole"
    INDEX 01 25:12:17
  TRACK 09 AUDIO
    TITLE "This Is All I Ask"
    PERFORMER "Nat King Cole"
    INDEX 01 28:30:67
  TRACK 10 AUDIO
    TITLE "Cherie, I Love You"
    PERFORMER "Nat King Cole"
    INDEX 01 33:06:47
  TRACK 11 AUDIO
    TITLE "Making Believe You're Here"
    PERFORMER "Nat King Cole"
    INDEX 01 36:41:02
  TRACK 12 AUDIO
    TITLE "Cherchez La Femme"
    PERFORMER "Nat King Cole"
    INDEX 01 40:27:52
  TRACK 13 AUDIO
    TITLE "For All We Know"
    PERFORMER "Nat King Cole"
    INDEX 01 43:13:05
  TRACK 14 AUDIO
    TITLE "The More I See You"
    PERFORMER "Nat King Cole"
    INDEX 01 46:33:15
  TRACK 15 AUDIO
    TITLE "Don't Blame Me"
    PERFORMER "Nat King Cole"
    INDEX 01 50:07:37
  TRACK 16 AUDIO
    TITLE "There Is No Greater Love"
    PERFORMER "Nat King Cole"
    INDEX 01 54:12:34

这是APE名: CD1.ape(真实文件有近300mb,略)
方逸

68

威望

5604

金钱

234

贡献

高级会员

Rank: 4

积分
6889
主题
291
帖子
2192
注册时间
2010-2-18
最后登录
2018-5-14
发表于 2012-7-7 19:48:48 | 显示全部楼层
dafang1003 发表于 2012-7-7 14:32
试过,有些能刻,有的不行,还是CUE导入出错,好像APE不匹配,试着把APE文件和cue文件中这排FILE "2.ape" W ...
REM GENRE "Vocal Jazz"
REM DATE 1958
REM DISCID D40D7010
REM COMMENT "ExactAudioCopy v0.99pb4"
CATALOG 0010963111927
PERFORMER "Nat King Cole"
TITLE "The Very Thought Of You (DCC Gold GZS-1119) [1958]"
FILE "CD1.ape" WAVE
  TRACK 01 AUDIO
……
把红色的那一行改成——
FILE "CD1.ape.ape" WAVE

51

威望

5099

金钱

228

贡献

管理员

孤魂野草

Rank: 9Rank: 9Rank: 9

积分
6374
主题
167
帖子
2382
注册时间
2011-12-18
最后登录
2021-11-4
QQ
发表于 2012-7-7 19:58:50 | 显示全部楼层
Hiroshi 发表于 2012-7-7 19:48
REM GENRE "Vocal Jazz"
REM DATE 1958
REM DISCID D40D7010

你确定他的电脑隐藏扩展名?

51

威望

5099

金钱

228

贡献

管理员

孤魂野草

Rank: 9Rank: 9Rank: 9

积分
6374
主题
167
帖子
2382
注册时间
2011-12-18
最后登录
2021-11-4
QQ
发表于 2012-7-7 20:06:50 | 显示全部楼层
接下来测试Nero8,中文文件名确实不行,但路径还是可以存在于中文命名的文件夹下面的。

重新用nero8 burning rom 和express都试了一下,的确不需要英文路径。看来我脑子当时又短路了……
完美保存中文TEXT

lijianwen老师太神了!我用映像刻录机试了一遍,真的是这样!

51

威望

5099

金钱

228

贡献

管理员

孤魂野草

Rank: 9Rank: 9Rank: 9

积分
6374
主题
167
帖子
2382
注册时间
2011-12-18
最后登录
2021-11-4
QQ
发表于 2012-7-7 20:10:52 | 显示全部楼层
Hiroshi 发表于 2012-7-7 11:02
1楼的光盘似乎做得很“shan寨”,看看“原版”唱片是啥样的?
Hiroshi 发表于 2012-6-30 22:29
正规光盘,一般是没有CD-TEXT的。

您需要登录后才可以回帖 登录 | 立即注册

本版积分规则

关闭

站长推荐上一条 /1 下一条

QQ|小黑屋|Archiver|手机版|点拨网 - 面向新手的教学站 |网站地图

GMT+8, 2021-11-29 04:09 , Processed in 0.220012 second(s), 18 queries , Redis On.

Powered by Discuz! X3.4

Copyright © 2001-2021, Tencent Cloud.

快速回复 返回顶部 返回列表